Global Business Cultural Analysis
Home Minister Bouma

Formula 1 2018 Chinese Grand Prix Shanghai HDTV x264 720

  • Category TV
  • Type HD
  • Language English
  • Total size 3.9 GB
  • Uploaded By HackRF
  • Downloads 929
  • Last checked 37 minutes ago
  • Date uploaded 1 day ago
  • Seeders 65
  • Leechers 17

Infohash : 08C9751F4335B88DF3C98B9472D9EC701CE82C7F


Formula 1 2018

Chinese Grand Prix
Shanghai
Sun, April 15 2018


General
Complete name : Formula 1 2018 Chinese Grand Prix Shanghai HDTV x264 720.mkv
Format : Matroska
Format version : Version 4 / Version 2
File size : 3.94 GiB
Duration : 2 h 17 min
Overall bit rate : 4 109 kb/s
Encoded date : UTC 2018-04-15 13:16:49
Writing application : mkvmerge v15.0.0 ('Duel with the Devil') 64-bit
Writing library : libebml v1.3.5 + libmatroska v1.4.5

Video
ID : 1
Format : AVC
Format/Info : Advanced Video Codec
Format profile : [email protected]
Format settings, CABAC : Yes
Format settings, RefFrames : 5 frames
Codec ID : V_MPEG4/ISO/AVC
Duration : 2 h 17 min
Bit rate : 3 721 kb/s
Width : 1 280 pixels
Height : 720 pixels
Display aspect ratio : 16:9
Frame rate mode : Constant
Frame rate : 59.940 (60000/1001) FPS
Color space : YUV
Chroma subsampling : 4:2:0
Bit depth : 8 bits
Scan type : Progressive
Bits/(Pixel*Frame) : 0.067
Stream size : 3.57 GiB (91%)
Writing library : x264 core 152 r2851 ba24899
Default : Yes
Forced : No

Audio
ID : 2
Format : AC-3
Format/Info : Audio Coding 3
Format settings, Endianness : Big
Codec ID : A_AC3
Duration : 2 h 17 min
Bit rate mode : Constant
Bit rate : 384 kb/s
Channel(s) : 6 channels
Channel positions : Front: L C R, Side: L R, LFE
Sampling rate : 48.0 kHz
Frame rate : 31.250 FPS (1536 SPF)
Bit depth : 16 bits
Compression mode : Lossy
Stream size : 377 MiB (9%)
Language : new
Service kind : Complete Main
Default : Yes
Forced : No


Files:

Formula 1 2018 Chinese Grand Prix Shanghai HDTV x264 720
  • Downloaded from theconservativethought.com.txt (0.3 KB)
  • Downloaded from demonoid.pw.txt (0.4 KB)
  • Formula 1.txt (5.1 KB)
  • Downloaded from Katcr.co .txt (6.0 KB)
  • Formula 1 2018 Chinese Grand Prix Shanghai HDTV x264 720.mkv (3.9 GB)

There are currently no comments. Feel free to leave one :)

Code:

  • udp://tracker.coppersurfer.tk:6969/announce
  • udp://tracker.trackerfix.com:80/announce
  • udp://9.rarbg.me:2710/announce
  • http://tracker.opentrackr.org:1337/announce
  • udp://inferno.demonoid.pw:3393/announce
  • udp://tracker.ilibr.org:6969/announce
  • udp://tracker.leechers-paradise.org:6969/announce
  • udp://tracker.zer0day.to:1337/announce
  • udp://eddie4.nl:6969/announce
  • udp://inferno.demonoid.pw:3391/announce
  • udp://tracker.leechers-paradise.org:6969